Trần Mạnh Hiếu

Chia sẻ, cảm nhận.
 
IndexCalendarGalleryTrợ giúpTìm kiếmThành viênNhómĐăng kýĐăng Nhập

Share | 
 

 MF] After Death - Đằng sau cái chết (2011) DVDrip

Xem chủ đề cũ hơn Xem chủ đề mới hơn Go down 
Tác giảThông điệp
thien_hieu
Huyền thoại 10%
Huyền thoại 10%


Tổng số bài gửi : 348
Join date : 18/08/2011
Age : 33
Đến từ : Nam Định

Bài gửiTiêu đề: MF] After Death - Đằng sau cái chết (2011) DVDrip    Fri Oct 28, 2011 11:20 pm

Từ xa xưa cho đến tận bây giờ, nhiều người vẫn quan điểm chết là
hết, không có sự sống sau cái chết. Thiên Chúa Giáo qua lời chúa Jesus
thì có luân hồi, hỏa ngục và thiên đường. Hồi Giáo cho rằng tín đồ
trung thành sau khi chết sẽ về với A-la.

Và sau những ngày tháng tìm hiểu, khai phá những bí mật về sự sống sau
khi chết, các nhà khoa học đã thu hoạch được rất nhiều. Near Dead
Experience là một khám phá lớn. Lác đác trên thế giới vẫn có những
người nhớ và kể lại tiền kiếp của mình. Không ít nhà ngoại cảm làm thế
giới ngạc nhiên, trầm trồ.

Rõ ràng chết không phải là hết. Sự sống vẫn tiếp diễn sau cái chết, và
khi tổng hợp lại tất cả các sự kiện, nghiên cứu được công bố, nhiều
người đã nhìn nhau và thừa nhận: Luật Nhân Quả Nghiệp Báo Luân Hồi
(Karma Law) của Đạo Phật cứ ăn khớp với những khám phá khoa học một cách
lạ lùng.

Và xin không dài dòng văn tự nữa, mời các bạn, mọi người đến với DVD After Death, với nội dung chủ yếu là buổi nói chuyện THE PHILOSOPHY OF DEATH, tức TRIẾT LÝ VỀ SỰ CHẾT của
GS Thích Chân Quang - một GS, nhạc sĩ đã quá nổi tiếng với các bài
giảng lay động mọi thành phần xã hội, làm nhiều cư dân mạng yêu thích,
say mê (Mái ấm gia đình Việt Nam, Đạo đức Y Khoa, Điều sóng thần muốn
nói, ...)



________________________________________




General

Format : AVI
Format/Info : Audio Video Interleave
File size : 391 MiB
Duration : 1h 17mn
Overall bit rate : 707 Kbps
Writing library : MPlayer

Video

ID : 0
Format : MPEG-4 Visual
Format profile : Advanced Simple@L5
Format settings, BVOP : 2
Format settings, QPel : No
Format settings, GMC : No warppoints
Format settings, Matrix : Default (H.263)
Codec ID : XVID
Codec ID/Hint : XviD
Duration : 1h 17mn
Bit rate : 637 Kbps
Width : 352 pixels
Height : 240 pixels
Display aspect ratio : 3:2
Frame rate : 29.970 fps
Standard : NTSC
Color space : YUV
Chroma subsampling : 4:2:0
Bit depth : 8 bits
Scan type : Progressive
Compression mode : Lossy
Bits/(Pixel*Frame) : 0.252
Stream size : 352 MiB (90%)
Writing library : XviD 63

Audio

ID : 1
Format : MPEG Audio
Format version : Version 1
Format profile : Layer 3
Mode : Joint stereo
Mode extension : MS Stereo
Codec ID : 55
Codec ID/Hint : MP3
Duration : 1h 17mn
Bit rate mode : Constant
Bit rate : 64.0 Kbps
Channel(s) : 2 channels
Sampling rate : 44.1 KHz
Compression mode : Lossy
Delay relative to video : 33ms
Stream size : 35.4 MiB (9%)
Alignment : Split accross interleaves
Interleave, duration : 500 ms (14.98 video frames)
Interleave, preload duration : 500 ms



























LINK DOWNLOAD




[You must be registered and logged in to see this link.]


Bạn tải về và nối 3 files lại bằng FFSJ sau đó giải nén bằng trình có sẵn trong Win, hay 7zip (miễn phí) cũng được
__________________________________________________ ________________

Ngoài nội dung đã giới thiệu, DVD vẫn còn nhiều mục khác rất thú vị,
xin dành cho mọi người khám phá. Và, nếu bạn có ý đăng lại bài viết này
lên các diễn đàn khác, xin hãy lưu ý hai điều sau:

- Đừng ghi nguồn bao giờ cả, trong thư mục About có chú thích nguồn rất rõ ràng
- Trình bày bài viết thật đẹp, vì đây là một cuốn phim mà gói trong đó
có những tư tưởng, triết lý, đạo lý sống rất cao cả, nhân văn...

chào tất cả...

ký tên: Ngày mai cát bụi đâu còn...
Về Đầu Trang Go down
Xem lý lịch thành viên
 
MF] After Death - Đằng sau cái chết (2011) DVDrip
Xem chủ đề cũ hơn Xem chủ đề mới hơn Về Đầu Trang 
Trang 1 trong tổng số 1 trang
 Similar topics
-
» [Hệ Tiềm Ẩn] Phòng số 2 - Death Room
» Danh sách người trúng cử đại biểu HĐND tỉnh Quảng Ngãi khóa XI
» Tin buồn - Mẹ bạn Thái Hòa qua đời!
» Hình đẹp - Phong cảnh
» Happy Father's Day!

Permissions in this forum:Bạn không có quyền trả lời bài viết
Trần Mạnh Hiếu :: Kho phim :: Phim Việt Nam-
Chuyển đến