Trần Mạnh Hiếu

Chia sẻ, cảm nhận.
 
IndexCalendarGalleryTrợ giúpTìm kiếmThành viênNhómĐăng kýĐăng Nhập

Share | 
 

 Butterfly (Hu die) 2004 (mediafire)

Xem chủ đề cũ hơn Xem chủ đề mới hơn Go down 
Tác giảThông điệp
thien_hieu
Huyền thoại 10%
Huyền thoại 10%


Tổng số bài gửi : 348
Join date : 18/08/2011
Age : 33
Đến từ : Nam Định

Bài gửiTiêu đề: Butterfly (Hu die) 2004 (mediafire)   Fri Sep 30, 2011 3:29 pm

<blockquote class="postcontent restore ">






Filename : Butterfly (Hu die) 2004 720p BluRay
Genre: Drama
Directed By: Mak Yuen Yan
Starring: Josie Ho, Eric Kot, Tian Yuan, Isabel Chan, Joman Chiang
Country: Hong Kong
Imdb rating : 7.1/10




Code:
General
Format : Matroska
Format version : Version 2
File size : 6.55 GiB
Duration : 2h 9mn
Overall bit rate : 7 261 Kbps
Encoded date : UTC 2010-01-04 05:13:51
Writing library : libebml v0.7.7 + libmatroska v0.8.1

Video
ID : 1
Format : AVC
Format/Info : Advanced Video Codec
Format profile : High@L4.1
Format settings, CABAC : Yes
Format settings, ReFrames : 8 frames
Codec ID : V_MPEG4/ISO/AVC
Duration : 2h 9mn
Bit rate : 6 621 Kbps
Width : 1 280 pixels
Height : 720 pixels
Display aspect ratio : 16:9
Frame rate : 24.000 fps
Color space : YUV
Chroma subsampling : 4:2:0
Bit depth : 8 bits
Scan type : Progressive
Bits/(Pixel*Frame) : 0.299
Stream size : 5.84 GiB (89%)
Title : Hu die (2004)
Writing library : x264 core 80 r1376M 3feaec2
Language : English

Audio
ID : 2
Format : AC-3
Format/Info : Audio Coding 3
Mode extension : CM (complete main)
Codec ID : A_AC3
Duration : 2h 9mn
Bit rate mode : Constant
Bit rate : 640 Kbps
Channel(s) : 6 channels
Channel positions : Front: L C R, Side: L R, LFE
Sampling rate : 48.0 KHz
Bit depth : 16 bits
Compression mode : Lossy
Stream size : 591 MiB (9%)
Language : Chinese




Bộ
phim xoay quanh về một người phụ nữ tên Điệp. Cô đã kết hôn, có một đứa
con trai, một người chồng yêu thương mình hết mực, một gia đình tràn
đầy hạnh phúc. Nhưng những thứ đó không khiến cho một giáo viên nhàn rỗi
như Điệp cảm thấy hài lòng. Rồi cô gặp một thiếu nữ kỳ bí đã khơi dậy
dục vọng bấy lâu nay nằm sâu trong con người Điệp, khiến cô từ từ huỷ
hoại đi cái gia đình hạnh phúc mà cô đã gầy dựng













[V-Z]






[You must be registered and logged in to see this link.]
Có 2 part 23,down part nào cũng dc
Pass giải nén : hdmovie.vn
Cách nối phim định dạng .HDM : [You must be registered and logged in to see this link.]
SUB : [You must be registered and logged in to see this link.]
Nguồn : hdmovie





[You must be registered and logged in to see this link.]
File reg : [You must be registered and logged in to see this link.]


</blockquote>
Về Đầu Trang Go down
Xem lý lịch thành viên
 
Butterfly (Hu die) 2004 (mediafire)
Xem chủ đề cũ hơn Xem chủ đề mới hơn Về Đầu Trang 
Trang 1 trong tổng số 1 trang
 Similar topics
-
» Admiralty Sailing Directions (Pilot Books) đủ bộ
» IMDG Code on CD Version 7.0 (2004) [Cập nhật: bản IMDG Code 2012 mới]
» Xin bảng phân công trách nhiệm từng thuyền viên trên tàu (muster list)
» Áp dụng công ước BMWS 2004 về thải nước ballast từ tàu biển
» Tài liệu Hệ thống định vị toàn cầu - GPS

Permissions in this forum:Bạn không có quyền trả lời bài viết
Trần Mạnh Hiếu :: Kho phim :: Tình cảm tâm lý 18+-
Chuyển đến